Info Hash Download The Son of Bigfoot 2017 1080p WEB-DL H264 AC3-EVO yts Torrent - Kickass Torrents Bhakter Bhagawan Sree Krishna | Ao no Kanata no Four Rhythm | Photo Editing

The Son of Bigfoot 2017 1080p WEB-DL H264 AC3-EVO

seeders: 40
leechers: 203
updated:
Added ago by showstopper ***** in Movies
Torrent Downloaded 10 times.
Info Hash: 355746B06701181B386FB7C2B846D7F3776DB67A

High Speed Download


Torrent Files

The Son of Bigfoot 2017 1080p WEB-DL H264 AC3-EVO (Size: 3.1 GB)
  The Son of Bigfoot 2017 1080p WEB-DL H264 AC3-EVO 3.1 GB

Torrent Description



The Son of Bigfoot.2017.1080p.WEB-DL.H264.AC3-EVO

ImDb: http://www.imdb.com/title/tt5715410



Complete name : The Son of Bigfoot.2017.1080p.WEB-DL.H264.AC3-EVO.mkv
Format : Matroska
Format version : Version 4 / Version 2
File size : 3.14 GiB
Duration : 1 h 31 min
Overall bit rate : 4 895 kb/s
Movie name : EVO
Encoded date : UTC 2017-11-14 14:44:08
Writing application : mkvmerge v6.7.0 ('Back to the Ground') 64bit built on Jan 8 2014 15:10:52
Writing library : libebml v1.3.0 + libmatroska v1.4.1

Video
ID : 2
Format : AVC
Format/Info : Advanced Video Codec
Format profile : [email protected]
Format settings, CABAC : Yes
Format settings, ReFrames : 5 frames
Codec ID : V_MPEG4/ISO/AVC
Duration : 1 h 31 min
Bit rate : 4 414 kb/s
Width : 1 920 pixels
Height : 798 pixels
Display aspect ratio : 2.40:1
Frame rate mode : Constant
Frame rate : 23.976 FPS
Color space : YUV
Chroma subsampling : 4:2:0
Bit depth : 8 bits
Scan type : Progressive
Bits/(Pixel*Frame) : 0.120
Stream size : 2.83 GiB (90%)
Language : English
Default : Yes
Forced : No
Color range : Limited
Color primaries : BT.709
Transfer characteristics : BT.709
Matrix coefficients : BT.709

Audio
ID : 1
Format : AC-3
Format/Info : Audio Coding 3
Format settings, Endianness : Big
Codec ID : A_AC3
Duration : 1 h 31 min
Bit rate mode : Constant
Bit rate : 384 kb/s
Channel(s) : 6 channels
Channel positions : Front: L C R, Side: L R, LFE
Sampling rate : 48.0 kHz
Frame rate : 31.250 FPS (1536 spf)
Bit depth : 16 bits
Compression mode : Lossy
Stream size : 252 MiB (8%)
Language : English
Service kind : Complete Main
Default : Yes
Forced : No

Menu
00:00:00.000 : en:1
00:05:51.601 : en:2
00:12:17.028 : en:3
00:17:54.907 : en:4
00:22:49.952 : en:5
00:27:17.803 : en:6
00:34:04.625 : en:7
00:41:53.592 : en:8
00:46:30.827 : en:9
00:50:29.649 : en:10
00:57:29.317 : en:11
01:02:09.804 : en:12
01:09:03.132 : en:13
01:14:14.108 : en:14
01:22:58.382 : en:15
01:26:11.825 : en:16






Click To View Screenshot

Click To View Screenshot

Click To View Screenshot



Related Torrents

torrent name size age seed leech
260.4 MB 2 minutes 123 361
136.4 MB 4 minutes 333 93
125.3 MB 4 minutes 379 351
408.5 MB 4 minutes 569 207
6.4 GB 7 minutes 92 93

Sharing Widget


Download torrent
3.1 GB
seeders:1214
leechers:386
The Son of Bigfoot 2017 1080p WEB-DL H264 AC3-EVO



To share this torrent use the code below and insert it into comments, status messages, forum posts or your signature.

Torrent: The Son of Bigfoot 2017 1080p WEB-DL H264 AC3-EVO

Comments

Latest Searches