Info Hash Download The Snowman 2017 HDCAM X264 HQMic-DADDY yts Torrent - Kickass Torrents VCA Pictures | Le Retour de Chucky | Cardinal

The Snowman 2017 HDCAM X264 HQMic-DADDY

seeders: 502
leechers: 414
updated:
Added ago by Silmarillion ***** in Movies
Torrent Downloaded 10 times.
Info Hash: 6BB00FC9B3EE5FF68CF096085914A68495416F7D

High Speed Download


Torrent Files

The Snowman 2017 HDCAM X264 HQMic-DADDY (Size: 1.8 GB)
  The Snowman 2017 HDCAM X264 HQMic-DADDY 1.8 GB

Torrent Description





http://www.imdb.com/title/tt1758810/

Detective Harry Hole investigates the disappearance of a woman whose pink scarf is found wrapped around an ominous-looking snowman.
Director: Tomas Alfredson
Writers: Peter Straughan (screenplay by), Hossein Amini (screenplay by)
Stars: Michael Fassbender, Rebecca Ferguson, Charlotte Gainsbourg
Genres: Crime | Drama | Horror | Mystery | Thriller
Country: UK | USA | Sweden

The Snowman 2017 HDCAM X264 HQMic-DADDY

Note: Synced ENG audio on italian source
Source: V:ITALIAN A: a friend thx
Sample: yes
Language: English

P/S: i am not cpg @ 26k. get over boi.

Format : MPEG-4
File size : 1.78 GiB
Duration : 1 h 54 min
Overall bit rate mode : Variable
Overall bit rate : 2 227 kb/s

Video
ID : 1
Format : AVC
Format/Info : Advanced Video Codec
Format profile : [email protected]
Format settings, CABAC : Yes
Format settings, ReFrames : 3 frames
Codec ID : avc1
Codec ID/Info : Advanced Video Coding
Duration : 1 h 54 min
Bit rate : 2 058 kb/s
Width : 720 pixels
Height : 384 pixels
Display aspect ratio : 1.85:1
Frame rate mode : Constant
Frame rate : 60.000 FPS
Color space : YUV
Chroma subsampling : 4:2:0
Bit depth : 8 bits
Scan type : Progressive
Bits/(Pixel*Frame) : 0.124
Stream size : 1.64 GiB (92%)

Audio
ID : 2
Format : AAC
Format/Info : Advanced Audio Codec
Format profile : LC
Codec ID : 40
Duration : 1 h 54 min
Bit rate mode : Variable
Bit rate : 165 kb/s
Maximum bit rate : 256 kb/s
Channel(s) : 2 channels
Channel positions : Front: L R
Sampling rate : 48.0 kHz
Frame rate : 46.875 FPS (1024 spf)
Compression mode : Lossy
Stream size : 135 MiB (7%)
Default : Yes
Alternate group : 1



Related Torrents

torrent name size age seed leech
136.4 MB 1 minute 52 151
125.3 MB 1 minute 36 390
408.5 MB 1 minute 227 267
6.4 GB 4 minutes 567 400
354.7 MB 4 minutes 432 62

Sharing Widget


Download torrent
1.8 GB
seeders:1214
leechers:386
The Snowman 2017 HDCAM X264 HQMic-DADDY



To share this torrent use the code below and insert it into comments, status messages, forum posts or your signature.

Torrent: The Snowman 2017 HDCAM X264 HQMic-DADDY

Comments

Latest Searches