Shaher-e-Tamana | Eugenio Derbez | Meganebu!

Love At First Hiccup 2009 720p BRRip H264 Feel-Free

seeders: 1
leechers: 1
updated:
Added in Movies > Highres Movies
Torrent verified. Downloaded 31 times.

DownloadFast Safe Anonymous
movies, software, shows...
Summary:

A high school romantic comedy about freshman Victor who has contracted a case of Anya-itis, (acute and incurable love passion for high school senior Anja.) And why shouldn't he?

Written by Pahly228.06K
Available in versions: HDRiPDVDRip
Love At First Hiccup 2009 720p BRRip H264 Feel-Free (Size: 1.36 GB)
  Love.At.First.Hiccup.2009.720p.BRRip.H264.Feel-Free.mp4 1.36 GB
  vlcsnap-2010-11-22-07h50m33s9.png 1.39 MB
  vlcsnap-2010-11-22-07h51m21s240.png 1.06 MB
  vlcsnap-2010-11-22-07h50m05s250.png 829.38 KB
  vlcsnap-2010-11-22-07h50m46s155.png 789.88 KB
  vlcsnap-2010-11-22-07h51m58s103.png 712.99 KB
  vlcsnap-2010-11-22-07h49m54s133.png 527.28 KB
  love1.jpg 110.68 KB
  Love.At.First.Hiccup.2009.720p.BRRip.H264.Feel-Free.nfo 1.62 KB

Description








Genre:Comedy

Language:English

IMDb:http://www.imdb.com/title/tt1307065/

Source:1080p.BluRay.x264-KaKa





General

Complete name :Love.At.First.Hiccup.2009.720p.BRRip.H264.Feel-Free

Format : MPEG-4

Format profile : Base Media

Codec ID : mp42

File size : 1.36 GiB

Duration : 1h 29mn

Overall bit rate : 2 165 Kbps

Video #1

Codec ID : avc1

Codec ID/Info : Advanced Video Coding

Duration : 1h 29mn

Bit rate mode : Variable

Bit rate : 1 686 Kbps

Width : 1 280 pixels

Height : 720 pixels

Display aspect ratio : 16:9

Frame rate mode : Constant

Frame rate : 23.976 fps

Resolution : 24 bits

Colorimetry : 4:2:0

Scan type : Progressive

Bits/(Pixel*Frame) : 0.076

Stream size : 1.06 GiB (78%)

Audio #2

ID : 2

Format : AAC

Format/Info : Advanced Audio Codec

Format version : Version 4

Format profile : LC

Format settings, SBR : No

Codec ID : 40

Duration : 1h 29mn

Bit rate mode : Constant

Bit rate : 475 Kbps

Nominal bit rate : 480 Kbps

Channel(s) : 6 channels

Channel positions : Front: L C R, Rear: L R, LFE

Sampling rate : 48.0 KHz

Resolution : 16 bits

Stream size : 305 MiB (22%)

Plot:

A high school romantic comedy about freshman Victor who has contracted a case of Anya-itis, (acute and incurable love passion for high school senior Anja.) And why shouldn't he?



TRAILER:

[embed=youtube]http://www.youtube.com/watch?v=kDufcgzt4Q0&feature=player_embedded[/embed]
















Related Torrents

torrent name size files age seed leech

Sharing Widget


Download torrent
1.36 GB
seeders:1
leechers:1
Love At First Hiccup 2009 720p BRRip H264 Feel-Free



To share this torrent use the code below and insert it into comments, status messages, forum posts or your signature.

Torrent: Love At First Hiccup 2009 720p BRRip H264 Feel-Free

Trackers

tracker name
udp://tracker.openbittorrent.com:80/announce
udp://tracker.publicbt.com:80/announce
udp://tracker.istole.it:80/announce
udp://tracker.1337x.org:80/announce
udp://coppersurfer.tk:6969/announce
udp://open.demonii.com:1337/announce
udp://glotorrents.pw:6969/announce
udp://tracker4.piratux.com:6969/announce
udp://tracker.ccc.de:80/announce
udp://fr33domtracker.h33t.com:3310/announce
µTorrent compatible trackers list

Locations

name
1337x
ThePirateBay
ExtraTorrent
Limetorrents
Fenopy
Torrent hash: 3201cea4764a7bb9b051906179ae8cd2dae7f9ff

All Comments

audio
9/10
video
9/10
please, leave only comments related to that torrent
Sign In

audio: 9video: 9
Good quality not that good of movie.

User Opinions

Fireman58444526, yolle3327, .Que1351, Ridergoga294, undersao215, alexeaka131
Report a bug Open chat